Ticket #13479: monsmsg-mediainfo.txt

File monsmsg-mediainfo.txt, 2.3 KB (added by hansejo, 6 weeks ago)
Line 
1General
2Complete name : qtw/channel/monsmsg.mov
3Format : QuickTime
4Format/Info : Original Apple specifications
5File size : 1.90 MiB
6Duration : 35 s 897 ms
7Overall bit rate : 445 kb/s
8Encoded date : UTC 1995-03-27 10:50:10
9Tagged date : UTC 1995-03-27 10:50:16
10Writing library : Apple QuickTime
11
12Video
13ID : 1
14Format : Cinepak
15Codec ID : cvid
16Duration : 35 s 817 ms
17Source duration : 36 s 500 ms
18Bit rate : 353 kb/s
19Width : 108 pixels
20Height : 80 pixels
21Display aspect ratio : 4:3
22Frame rate mode : Variable
23Frame rate : 14.985 (14985/1000) FPS
24Minimum frame rate : 12.000 FPS
25Maximum frame rate : 24.000 FPS
26Bits/(Pixel*Frame) : 2.728
27Stream size : 1.51 MiB (79%)
28Source stream size : 1.52 MiB (80%)
29Language : English
30Encoded date : UTC 1993-04-09 03:32:29
31Tagged date : UTC 1995-03-27 10:50:16
32
33Audio
34ID : 6
35Format : PCM
36Format settings : Big / Signed
37Codec ID : twos
38Duration : 35 s 897 ms
39Bit rate mode : Constant
40Bit rate : 88.2 kb/s
41Channel(s) : 1 channel
42Sampling rate : 11.025 kHz
43Bit depth : 8 bits
44Stream size : 386 KiB (20%)
45Language : English
46Encoded date : UTC 1995-03-15 16:01:02
47Tagged date : UTC 1995-03-27 10:50:16
48
49